  0
SECTION
  2
HEADER
  9
$ACADVER
  1
AC1003
  9
$INSBASE
 10
0.000000
 20
0.000000
  9
$EXTMIN
 10
0.000000
 20
0.000000
  9
$EXTMAX
 10
1820.000000
 20
1285.000000
  9
$LIMMIN
 10
0.000000
 20
0.000000
  9
$LIMMAX
 10
1820.000000
 20
1285.000000
  9
$VIEWCTR
 10
910.000000
 20
642.500000
  9
$VIEWSIZE
 40
1285.000000
  9
$PEXTMIN
 10
0.000000
 20
0.000000
 30
0.000000
  9
$PEXTMAX
 10
364.000000
 20
257.000000
 30
0.000000
  9
$SNAPMODE
 70
     0
  9
$SNAPUNIT
 10
1.000000
 20
1.000000
  9
$SNAPBASE
 10
0.000000
 20
0.000000
  9
$SNAPANG
 50
0.000000
  9
$SNAPISOPAIR
 70
     0
  9
$SNAPSTYLE
 70
     0
  9
$GRIDMODE
 70
     0
  9
$GRIDUNIT
 10
0.000000
 20
0.000000
  9
$ORTHOMODE
 70
     0
  9
$REGENMODE
 70
     1
  9
$FILLMODE
 70
     1
  9
$QTEXTMODE
 70
     0
  9
$DRAGMODE
 70
     2
  9
$LTSCALE
 40
1.250000
  9
$OSMODE
 70
     0
  9
$ATTMODE
 70
     1
  9
$TEXTSIZE
 40
0.200000
  9
$TRACEWID
 40
0.050000
  9
$TEXTSTYLE
  7
STANDARD
  9
$CLAYER
  8
0
  9
$CELTYPE
  6
BYLAYER
  9
$CECOLOR
 62
   256
  9
$DIMSCALE
 40
1.000000
  9
$DIMASZ
 40
1.000000
  9
$DIMEXO
 40
0.000000
  9
$DIMDLI
 40
0.500000
  9
$DIMRND
 40
0.000000
  9
$DIMDLE
 40
0.000000
  9
$DIMEXE
 40
0.000000
  9
$DIMTP
 40
0.000000
  9
$DIMTM
 40
0.000000
  9
$DIMTXT
 40
0.180000
  9
$DIMCEN
 40
0.000000
  9
$DIMTSZ
 40
0.000000
  9
$DIMTOL
 70
     0
  9
$DIMLIM
 70
     0
  9
$DIMTIH
 70
     1
  9
$DIMTOH
 70
     1
  9
$DIMSE1
 70
     0
  9
$DIMSE2
 70
     0
  9
$DIMTAD
 70
     0
  9
$DIMZIN
 70
     0
  9
$DIMBLK
  1

  9
$DIMASO
 70
     0
  9
$DIMSHO
 70
     0
  9
$DIMPOST
  1

  9
$DIMAPOST
  1

  9
$DIMALT
 70
     0
  9
$DIMALTD
 70
     0
  9
$DIMALTF
 40
25.400000
  9
$DIMLFAC
 40
1.000000
  9
$DIMTOFL
 70
     0
  9
$DIMTVP
 40
0.000000
  9
$DIMTIX
 70
     0
  9
$DIMSOXD
 70
     0
  9
$DIMSAH
 70
     0
  9
$DIMBLKL
  1

  9
$DIMBLKR
  1

  9
$LUNITS
 70
     2
  9
$LUPREC
 70
     2
  9
$AXISMODE
 70
     0
  9
$AXISUNIT
 10
1.000000
 20
1.000000
  9
$SKETCHINC
 40
0.000000
  9
$FILLETRAD
 40
0.000000
  9
$AUNITS
 70
     1
  9
$AUPREC
 70
     2
  9
$MENU
  1
ACAD
  9
$ELEVATION
 40
0.000000
  9
$THICKNESS
 40
0.000000
  9
$VIEWDIR
 10
0.000000
 20
0.000000
 30
1.000000
  9
$LIMCHECK
 70
     1
  9
$BLIPMODE
 70
     1
  9
$CHAMFERA
 40
0.000000
  9
$CHAMFERB
 40
0.000000
  9
$FASTZOOM
 70
     1
  9
$SKPOLY
 70
     0
  9
$TDCREATE
 40
0.000000
  9
$TDUPDATE
 40
0.000000
  9
$TDINDWG
 40
0.000000
  9
$TDUSRTIMER
 40
0.000000
  9
$USRTIMER
 70
     1
  9
$ANGBASE
 50
0.000000
  9
$ANGDIR
 70
     0
  9
$PDMODE
 70
     0
  9
$PDSIZE
 40
0.000000
  9
$PLINEWID
 40
0.000000
  9
$COORDS
 70
     2
  9
$USERI1
 70
     0
  9
$USERI2
 70
     0
  9
$USERI3
 70
     0
  9
$USERI4
 70
     0
  9
$USERI5
 70
     0
  9
$USERR1
 40
0.000000
  9
$USERR2
 40
0.000000
  9
$USERR3
 40
0.000000
  9
$USERR4
 40
0.000000
  9
$USERR5
 40
0.000000
  0
ENDSEC
  0
SECTION
  2
TABLES
  0
TABLE
  2
LTYPE
 70
     5
  0
LTYPE
  2
CONTINUOUS
 70
    64
  3
Solid line
 72
    65
 73
     0
 40
0.0
  0
LTYPE
  2
HIDDEN
 70
    64
  3
------------------------
 72
    65
 73
     2
 40
12.6
 49
8.4
 49
-4.2
  0
LTYPE
  2
DOT
 70
    64
  3
････････････････････････
 72
    65
 73
     2
 40
8.0
 49
6.0
 49
-2.0
  0
LTYPE
  2
DASHDOT
 70
    64
  3
--･--･--･--･--･--･--･--
 72
    65
 73
     4
 40
50.5
 49
30.0
 49
-9.0
 49
2.5
 49
-9.0
  0
LTYPE
  2
DIVIDE
 70
    64
  3
--･･--･･--･･--･･--･･--
 72
    65
 73
     6
 40
58.0
 49
30.0
 49
-9.0
 49
2.5
 49
-5.0
 49
2.5
 49
-9.0
  0
ENDTAB
  0
TABLE
  2
LAYER
 70
1
  0
LAYER
  2
1
 70
64
 62
7
  6
CONTINUOUS
  0
ENDTAB
  0
TABLE
  2
STYLE
 70
     2
  0
STYLE
  2
STANDARD
 70
    64
 40
0.0
 41
1.0
 50
0.0
 71
     0
 42
0.2
  3
TXT
  4

  0
STYLE
  2
KANJI
 70
    64
 40
0.0
 41
1.0
 50
0.0
 71
     0
 42
0.2
  3
TXT
  4
BIGFONT
  0
ENDTAB
  0
TABLE
  2
VIEW
 70
     0
  0
ENDTAB
  0
ENDSEC
  0
SECTION
  2
BLOCKS
  0
BLOCK
  8
1
 62
7
  6
CONTINUOUS
  2
*D1
 70
    65
 10
0.0
 20
0.0
  0
LINE
  8
1
 62
7
  6
CONTINUOUS
 10
793.919999
 20
286.869406
 11
973.919999
 21
286.869406
  0
LINE
  8
1
 62
7
  6
CONTINUOUS
 10
793.919999
 20
296.869406
 11
793.919999
 21
283.160000
  0
LINE
  8
1
 62
7
  6
CONTINUOUS
 10
973.919999
 20
296.869406
 11
973.919999
 21
283.160000
  0
CIRCLE
  8
1
 62
7
  6
CONTINUOUS
 10
793.919999
 20
286.869406
 40
1.500000
  0
CIRCLE
  8
1
 62
7
  6
CONTINUOUS
 10
793.919999
 20
286.869406
 40
0.750000
  0
CIRCLE
  8
1
 62
7
  6
CONTINUOUS
 10
973.919999
 20
286.869406
 40
1.500000
  0
CIRCLE
  8
1
 62
7
  6
CONTINUOUS
 10
973.919999
 20
286.869406
 40
0.750000
  0
TEXT
  8
1
 62
7
  6
CONTINUOUS
 10
858.919999
 20
286.869406
 40
20.000000
 41
0.625000
  1
180φ
  7
KANJI
 50
0.000000
 51
30.000000
  0
ENDBLK
  0
BLOCK
  8
1
 62
7
  6
CONTINUOUS
  2
*D2
 70
    65
 10
0.0
 20
0.0
  0
LINE
  8
1
 62
7
  6
CONTINUOUS
 10
466.101315
 20
488.160000
 11
466.101315
 21
466.160000
  0
LINE
  8
1
 62
7
  6
CONTINUOUS
 10
456.101315
 20
483.160000
 11
483.920000
 21
483.160000
  0
LINE
  8
1
 62
7
  6
CONTINUOUS
 10
456.101315
 20
471.160000
 11
483.920000
 21
471.160000
  0
CIRCLE
  8
1
 62
7
  6
CONTINUOUS
 10
466.101315
 20
483.160000
 40
1.500000
  0
CIRCLE
  8
1
 62
7
  6
CONTINUOUS
 10
466.101315
 20
483.160000
 40
0.750000
  0
CIRCLE
  8
1
 62
7
  6
CONTINUOUS
 10
466.101315
 20
471.160000
 40
1.500000
  0
CIRCLE
  8
1
 62
7
  6
CONTINUOUS
 10
466.101315
 20
471.160000
 40
0.750000
  0
TEXT
  8
1
 62
7
  6
CONTINUOUS
 10
466.101315
 20
467.160000
 40
20.000000
 41
0.500000
  1
12
  7
KANJI
 50
90.000000
 51
30.000000
  0
ENDBLK
  0
BLOCK
  8
1
 62
7
  6
CONTINUOUS
  2
*D3
 70
    65
 10
0.0
 20
0.0
  0
LINE
  8
1
 62
7
  6
CONTINUOUS
 10
488.920000
 20
501.898015
 11
523.920000
 21
501.898015
  0
LINE
  8
1
 62
7
  6
CONTINUOUS
 10
493.920000
 20
511.898015
 11
493.920000
 21
493.160000
  0
LINE
  8
1
 62
7
  6
CONTINUOUS
 10
518.920000
 20
511.898015
 11
518.920000
 21
493.160000
  0
CIRCLE
  8
1
 62
7
  6
CONTINUOUS
 10
493.920000
 20
501.898015
 40
1.500000
  0
CIRCLE
  8
1
 62
7
  6
CONTINUOUS
 10
493.920000
 20
501.898015
 40
0.750000
  0
CIRCLE
  8
1
 62
7
  6
CONTINUOUS
 10
518.920000
 20
501.898015
 40
1.500000
  0
CIRCLE
  8
1
 62
7
  6
CONTINUOUS
 10
518.920000
 20
501.898015
 40
0.750000
  0
TEXT
  8
1
 62
7
  6
CONTINUOUS
 10
496.420000
 20
501.898015
 40
20.000000
 41
0.500000
  1
25
  7
KANJI
 50
0.000000
 51
30.000000
  0
ENDBLK
  0
BLOCK
  8
1
 62
7
  6
CONTINUOUS
  2
*D4
 70
    65
 10
0.0
 20
0.0
  0
LINE
  8
1
 62
7
  6
CONTINUOUS
 10
515.720261
 20
354.321735
 11
536.190311
 21
354.321735
  0
LINE
  8
1
 62
7
  6
CONTINUOUS
 10
520.720261
 20
354.321735
 11
501.401744
 21
349.145354
  0
LINE
  8
1
 62
7
  6
CONTINUOUS
 10
520.720261
 20
354.321735
 11
501.401744
 21
359.498116
  0
LINE
  8
1
 62
7
  6
CONTINUOUS
 10
501.401744
 20
349.145354
 11
501.401744
 21
359.498116
  0
LINE
  8
1
 62
7
  6
CONTINUOUS
 10
515.890631
 20
354.321735
 11
506.231373
 21
351.733545
  0
LINE
  8
1
 62
7
  6
CONTINUOUS
 10
515.890631
 20
354.321735
 11
506.231373
 21
356.909926
  0
LINE
  8
1
 62
7
  6
CONTINUOUS
 10
506.231373
 20
351.733545
 11
506.231373
 21
356.909926
  0
LINE
  8
1
 62
7
  6
CONTINUOUS
 10
531.190311
 20
354.321735
 11
550.508827
 21
359.498116
  0
LINE
  8
1
 62
7
  6
CONTINUOUS
 10
531.190311
 20
354.321735
 11
550.508827
 21
349.145354
  0
LINE
  8
1
 62
7
  6
CONTINUOUS
 10
550.508827
 20
359.498116
 11
550.508827
 21
349.145354
  0
LINE
  8
1
 62
7
  6
CONTINUOUS
 10
536.019940
 20
354.321735
 11
545.679198
 21
356.909926
  0
LINE
  8
1
 62
7
  6
CONTINUOUS
 10
536.019940
 20
354.321735
 11
545.679198
 21
351.733545
  0
LINE
  8
1
 62
7
  6
CONTINUOUS
 10
545.679198
 20
356.909926
 11
545.679198
 21
351.733545
  0
TEXT
  8
1
 62
7
  6
CONTINUOUS
 10
520.955286
 20
354.321735
 40
20.000000
 41
0.500000
  1
8
  7
KANJI
 50
0.000000
 51
30.000000
  0
ENDBLK
  0
BLOCK
  8
1
 62
7
  6
CONTINUOUS
  2
*D5
 70
    65
 10
0.0
 20
0.0
  0
LINE
  8
1
 62
7
  6
CONTINUOUS
 10
1318.363010
 20
483.160000
 11
1318.363010
 21
263.160000
  0
LINE
  8
1
 62
7
  6
CONTINUOUS
 10
1328.363010
 20
483.160000
 11
1283.920000
 21
483.160000
  0
LINE
  8
1
 62
7
  6
CONTINUOUS
 10
1328.363010
 20
263.160000
 11
1283.920000
 21
263.160000
  0
CIRCLE
  8
1
 62
7
  6
CONTINUOUS
 10
1318.363010
 20
483.160000
 40
1.500000
  0
CIRCLE
  8
1
 62
7
  6
CONTINUOUS
 10
1318.363010
 20
483.160000
 40
0.750000
  0
CIRCLE
  8
1
 62
7
  6
CONTINUOUS
 10
1318.363010
 20
263.160000
 40
1.500000
  0
CIRCLE
  8
1
 62
7
  6
CONTINUOUS
 10
1318.363010
 20
263.160000
 40
0.750000
  0
TEXT
  8
1
 62
7
  6
CONTINUOUS
 10
1318.363010
 20
358.160000
 40
20.000000
 41
0.500000
  1
210
  7
KANJI
 50
90.000000
 51
30.000000
  0
ENDBLK
  0
BLOCK
  8
1
 62
7
  6
CONTINUOUS
  2
*D6
 70
    65
 10
0.0
 20
0.0
  0
LINE
  8
1
 62
7
  6
CONTINUOUS
 10
1347.684866
 20
483.160000
 11
1347.684866
 21
248.160000
  0
LINE
  8
1
 62
7
  6
CONTINUOUS
 10
1357.684866
 20
483.160000
 11
1283.920000
 21
483.160000
  0
LINE
  8
1
 62
7
  6
CONTINUOUS
 10
1357.684866
 20
248.160000
 11
1283.920000
 21
248.160000
  0
CIRCLE
  8
1
 62
7
  6
CONTINUOUS
 10
1347.684866
 20
483.160000
 40
1.500000
  0
CIRCLE
  8
1
 62
7
  6
CONTINUOUS
 10
1347.684866
 20
483.160000
 40
0.750000
  0
CIRCLE
  8
1
 62
7
  6
CONTINUOUS
 10
1347.684866
 20
248.160000
 40
1.500000
  0
CIRCLE
  8
1
 62
7
  6
CONTINUOUS
 10
1347.684866
 20
248.160000
 40
0.750000
  0
TEXT
  8
1
 62
7
  6
CONTINUOUS
 10
1347.684866
 20
350.660000
 40
20.000000
 41
0.500000
  1
230
  7
KANJI
 50
90.000000
 51
30.000000
  0
ENDBLK
  0
BLOCK
  8
1
 62
7
  6
CONTINUOUS
  2
*D7
 70
    65
 10
0.0
 20
0.0
  0
LINE
  8
1
 62
7
  6
CONTINUOUS
 10
1478.332533
 20
1188.250729
 11
1708.332533
 21
1188.250729
  0
LINE
  8
1
 62
7
  6
CONTINUOUS
 10
1478.332533
 20
1198.250729
 11
1478.332533
 21
1124.886667
  0
LINE
  8
1
 62
7
  6
CONTINUOUS
 10
1708.332533
 20
1198.250729
 11
1708.332533
 21
1124.886667
  0
CIRCLE
  8
1
 62
7
  6
CONTINUOUS
 10
1478.332533
 20
1188.250729
 40
1.500000
  0
CIRCLE
  8
1
 62
7
  6
CONTINUOUS
 10
1478.332533
 20
1188.250729
 40
0.750000
  0
CIRCLE
  8
1
 62
7
  6
CONTINUOUS
 10
1708.332533
 20
1188.250729
 40
1.500000
  0
CIRCLE
  8
1
 62
7
  6
CONTINUOUS
 10
1708.332533
 20
1188.250729
 40
0.750000
  0
TEXT
  8
1
 62
7
  6
CONTINUOUS
 10
1578.332533
 20
1188.250729
 40
20.000000
 41
0.500000
  1
230
  7
KANJI
 50
0.000000
 51
30.000000
  0
ENDBLK
  0
BLOCK
  8
1
 62
7
  6
CONTINUOUS
  2
*D8
 70
    65
 10
0.0
 20
0.0
  0
LINE
  8
1
 62
7
  6
CONTINUOUS
 10
1473.332533
 20
573.923640
 11
1495.332533
 21
573.923640
  0
LINE
  8
1
 62
7
  6
CONTINUOUS
 10
1478.332533
 20
563.923640
 11
1478.332533
 21
594.886667
  0
LINE
  8
1
 62
7
  6
CONTINUOUS
 10
1490.332533
 20
563.923640
 11
1490.332533
 21
594.886667
  0
CIRCLE
  8
1
 62
7
  6
CONTINUOUS
 10
1478.332533
 20
573.923640
 40
1.500000
  0
CIRCLE
  8
1
 62
7
  6
CONTINUOUS
 10
1478.332533
 20
573.923640
 40
0.750000
  0
CIRCLE
  8
1
 62
7
  6
CONTINUOUS
 10
1490.332533
 20
573.923640
 40
1.500000
  0
CIRCLE
  8
1
 62
7
  6
CONTINUOUS
 10
1490.332533
 20
573.923640
 40
0.750000
  0
TEXT
  8
1
 62
7
  6
CONTINUOUS
 10
1474.332533
 20
573.923640
 40
20.000000
 41
0.500000
  1
12
  7
KANJI
 50
0.000000
 51
30.000000
  0
ENDBLK
  0
BLOCK
  8
1
 62
7
  6
CONTINUOUS
  2
*D9
 70
    65
 10
0.0
 20
0.0
  0
LINE
  8
1
 62
7
  6
CONTINUOUS
 10
513.480220
 20
1189.886667
 11
1293.480220
 21
1189.886667
  0
LINE
  8
1
 62
7
  6
CONTINUOUS
 10
513.480220
 20
1199.886667
 11
513.480220
 21
1124.886667
  0
LINE
  8
1
 62
7
  6
CONTINUOUS
 10
1293.480220
 20
1199.886667
 11
1293.480220
 21
1124.886667
  0
CIRCLE
  8
1
 62
7
  6
CONTINUOUS
 10
513.480220
 20
1189.886667
 40
1.500000
  0
CIRCLE
  8
1
 62
7
  6
CONTINUOUS
 10
513.480220
 20
1189.886667
 40
0.750000
  0
CIRCLE
  8
1
 62
7
  6
CONTINUOUS
 10
1293.480220
 20
1189.886667
 40
1.500000
  0
CIRCLE
  8
1
 62
7
  6
CONTINUOUS
 10
1293.480220
 20
1189.886667
 40
0.750000
  0
TEXT
  8
1
 62
7
  6
CONTINUOUS
 10
888.480220
 20
1189.886667
 40
20.000000
 41
0.500000
  1
780
  7
KANJI
 50
0.000000
 51
30.000000
  0
ENDBLK
  0
BLOCK
  8
1
 62
7
  6
CONTINUOUS
  2
*D10
 70
    65
 10
0.0
 20
0.0
  0
LINE
  8
1
 62
7
  6
CONTINUOUS
 10
513.480220
 20
1164.886667
 11
538.480220
 21
1164.886667
  0
LINE
  8
1
 62
7
  6
CONTINUOUS
 10
513.480220
 20
1174.886667
 11
513.480220
 21
1149.886667
  0
LINE
  8
1
 62
7
  6
CONTINUOUS
 10
538.480220
 20
1174.886667
 11
538.480220
 21
1149.886667
  0
CIRCLE
  8
1
 62
7
  6
CONTINUOUS
 10
513.480220
 20
1164.886667
 40
1.500000
  0
CIRCLE
  8
1
 62
7
  6
CONTINUOUS
 10
513.480220
 20
1164.886667
 40
0.750000
  0
CIRCLE
  8
1
 62
7
  6
CONTINUOUS
 10
538.480220
 20
1164.886667
 40
1.500000
  0
CIRCLE
  8
1
 62
7
  6
CONTINUOUS
 10
538.480220
 20
1164.886667
 40
0.750000
  0
TEXT
  8
1
 62
7
  6
CONTINUOUS
 10
515.980220
 20
1164.886667
 40
20.000000
 41
0.500000
  1
25
  7
KANJI
 50
0.000000
 51
30.000000
  0
ENDBLK
  0
BLOCK
  8
1
 62
7
  6
CONTINUOUS
  2
*D11
 70
    65
 10
0.0
 20
0.0
  0
LINE
  8
1
 62
7
  6
CONTINUOUS
 10
538.480220
 20
1164.886667
 11
1268.480220
 21
1164.886667
  0
LINE
  8
1
 62
7
  6
CONTINUOUS
 10
1268.480220
 20
1174.886667
 11
1268.480220
 21
1149.886667
  0
CIRCLE
  8
1
 62
7
  6
CONTINUOUS
 10
1268.480220
 20
1164.886667
 40
1.500000
  0
CIRCLE
  8
1
 62
7
  6
CONTINUOUS
 10
1268.480220
 20
1164.886667
 40
0.750000
  0
TEXT
  8
1
 62
7
  6
CONTINUOUS
 10
888.480220
 20
1164.886667
 40
20.000000
 41
0.500000
  1
730
  7
KANJI
 50
0.000000
 51
30.000000
  0
ENDBLK
  0
BLOCK
  8
1
 62
7
  6
CONTINUOUS
  2
*D12
 70
    65
 10
0.0
 20
0.0
  0
LINE
  8
1
 62
7
  6
CONTINUOUS
 10
1268.480220
 20
1164.886667
 11
1293.480220
 21
1164.886667
  0
LINE
  8
1
 62
7
  6
CONTINUOUS
 10
1293.480220
 20
1174.886667
 11
1293.480220
 21
1149.886667
  0
CIRCLE
  8
1
 62
7
  6
CONTINUOUS
 10
1293.480220
 20
1164.886667
 40
1.500000
  0
CIRCLE
  8
1
 62
7
  6
CONTINUOUS
 10
1293.480220
 20
1164.886667
 40
0.750000
  0
TEXT
  8
1
 62
7
  6
CONTINUOUS
 10
1270.980220
 20
1164.886667
 40
20.000000
 41
0.500000
  1
25
  7
KANJI
 50
0.000000
 51
30.000000
  0
ENDBLK
  0
BLOCK
  8
1
 62
7
  6
CONTINUOUS
  2
*D13
 70
    65
 10
0.0
 20
0.0
  0
LINE
  8
1
 62
7
  6
CONTINUOUS
 10
438.480220
 20
1114.886667
 11
438.480220
 21
604.886667
  0
LINE
  8
1
 62
7
  6
CONTINUOUS
 10
428.480220
 20
1114.886667
 11
503.480220
 21
1114.886667
  0
LINE
  8
1
 62
7
  6
CONTINUOUS
 10
428.480220
 20
604.886667
 11
503.480220
 21
604.886667
  0
CIRCLE
  8
1
 62
7
  6
CONTINUOUS
 10
438.480220
 20
1114.886667
 40
1.500000
  0
CIRCLE
  8
1
 62
7
  6
CONTINUOUS
 10
438.480220
 20
1114.886667
 40
0.750000
  0
CIRCLE
  8
1
 62
7
  6
CONTINUOUS
 10
438.480220
 20
604.886667
 40
1.500000
  0
CIRCLE
  8
1
 62
7
  6
CONTINUOUS
 10
438.480220
 20
604.886667
 40
0.750000
  0
TEXT
  8
1
 62
7
  6
CONTINUOUS
 10
438.480220
 20
844.886667
 40
20.000000
 41
0.500000
  1
510
  7
KANJI
 50
90.000000
 51
30.000000
  0
ENDBLK
  0
BLOCK
  8
1
 62
7
  6
CONTINUOUS
  2
*D14
 70
    65
 10
0.0
 20
0.0
  0
LINE
  8
1
 62
7
  6
CONTINUOUS
 10
463.480220
 20
1114.886667
 11
463.480220
 21
1089.886667
  0
LINE
  8
1
 62
7
  6
CONTINUOUS
 10
453.480220
 20
1114.886667
 11
503.480220
 21
1114.886667
  0
LINE
  8
1
 62
7
  6
CONTINUOUS
 10
453.480220
 20
1089.886667
 11
503.480220
 21
1089.886667
  0
CIRCLE
  8
1
 62
7
  6
CONTINUOUS
 10
463.480220
 20
1114.886667
 40
1.500000
  0
CIRCLE
  8
1
 62
7
  6
CONTINUOUS
 10
463.480220
 20
1114.886667
 40
0.750000
  0
CIRCLE
  8
1
 62
7
  6
CONTINUOUS
 10
463.480220
 20
1089.886667
 40
1.500000
  0
CIRCLE
  8
1
 62
7
  6
CONTINUOUS
 10
463.480220
 20
1089.886667
 40
0.750000
  0
TEXT
  8
1
 62
7
  6
CONTINUOUS
 10
463.480220
 20
1092.386667
 40
20.000000
 41
0.500000
  1
25
  7
KANJI
 50
90.000000
 51
30.000000
  0
ENDBLK
  0
BLOCK
  8
1
 62
7
  6
CONTINUOUS
  2
*D15
 70
    65
 10
0.0
 20
0.0
  0
LINE
  8
1
 62
7
  6
CONTINUOUS
 10
463.480220
 20
1089.886667
 11
463.480220
 21
629.886667
  0
LINE
  8
1
 62
7
  6
CONTINUOUS
 10
453.480220
 20
629.886667
 11
503.480220
 21
629.886667
  0
CIRCLE
  8
1
 62
7
  6
CONTINUOUS
 10
463.480220
 20
629.886667
 40
1.500000
  0
CIRCLE
  8
1
 62
7
  6
CONTINUOUS
 10
463.480220
 20
629.886667
 40
0.750000
  0
TEXT
  8
1
 62
7
  6
CONTINUOUS
 10
463.480220
 20
844.886667
 40
20.000000
 41
0.500000
  1
460
  7
KANJI
 50
90.000000
 51
30.000000
  0
ENDBLK
  0
BLOCK
  8
1
 62
7
  6
CONTINUOUS
  2
*D16
 70
    65
 10
0.0
 20
0.0
  0
LINE
  8
1
 62
7
  6
CONTINUOUS
 10
463.480220
 20
629.886667
 11
463.480220
 21
604.886667
  0
LINE
  8
1
 62
7
  6
CONTINUOUS
 10
453.480220
 20
604.886667
 11
503.480220
 21
604.886667
  0
CIRCLE
  8
1
 62
7
  6
CONTINUOUS
 10
463.480220
 20
604.886667
 40
1.500000
  0
CIRCLE
  8
1
 62
7
  6
CONTINUOUS
 10
463.480220
 20
604.886667
 40
0.750000
  0
TEXT
  8
1
 62
7
  6
CONTINUOUS
 10
463.480220
 20
607.386667
 40
20.000000
 41
0.500000
  1
25
  7
KANJI
 50
90.000000
 51
30.000000
  0
ENDBLK
  0
BLOCK
  8
1
 62
7
  6
CONTINUOUS
  2
*D17
 70
    65
 10
0.0
 20
0.0
  0
LINE
  8
1
 62
7
  6
CONTINUOUS
 10
683.480219
 20
1139.886667
 11
903.480219
 21
1139.886667
  0
LINE
  8
1
 62
7
  6
CONTINUOUS
 10
683.480219
 20
1149.886667
 11
683.480219
 21
1124.886667
  0
LINE
  8
1
 62
7
  6
CONTINUOUS
 10
903.480219
 20
1149.886667
 11
903.480219
 21
1124.886667
  0
CIRCLE
  8
1
 62
7
  6
CONTINUOUS
 10
683.480219
 20
1139.886667
 40
1.500000
  0
CIRCLE
  8
1
 62
7
  6
CONTINUOUS
 10
683.480219
 20
1139.886667
 40
0.750000
  0
CIRCLE
  8
1
 62
7
  6
CONTINUOUS
 10
903.480219
 20
1139.886667
 40
1.500000
  0
CIRCLE
  8
1
 62
7
  6
CONTINUOUS
 10
903.480219
 20
1139.886667
 40
0.750000
  0
TEXT
  8
1
 62
7
  6
CONTINUOUS
 10
778.480219
 20
1139.886667
 40
20.000000
 41
0.500000
  1
220
  7
KANJI
 50
0.000000
 51
30.000000
  0
ENDBLK
  0
BLOCK
  8
1
 62
7
  6
CONTINUOUS
  2
*D18
 70
    65
 10
0.0
 20
0.0
  0
LINE
  8
1
 62
7
  6
CONTINUOUS
 10
903.480219
 20
1139.886667
 11
1123.480219
 21
1139.886667
  0
LINE
  8
1
 62
7
  6
CONTINUOUS
 10
1123.480219
 20
1149.886667
 11
1123.480219
 21
1124.886667
  0
CIRCLE
  8
1
 62
7
  6
CONTINUOUS
 10
1123.480219
 20
1139.886667
 40
1.500000
  0
CIRCLE
  8
1
 62
7
  6
CONTINUOUS
 10
1123.480219
 20
1139.886667
 40
0.750000
  0
TEXT
  8
1
 62
7
  6
CONTINUOUS
 10
998.480219
 20
1139.886667
 40
20.000000
 41
0.500000
  1
220
  7
KANJI
 50
0.000000
 51
30.000000
  0
ENDBLK
  0
BLOCK
  8
1
 62
7
  6
CONTINUOUS
  2
*D19
 70
    65
 10
0.0
 20
0.0
  0
LINE
  8
1
 62
7
  6
CONTINUOUS
 10
813.480219
 20
946.886667
 11
993.480220
 21
946.886667
  0
CIRCLE
  8
1
 62
7
  6
CONTINUOUS
 10
813.480219
 20
946.886667
 40
1.500000
  0
CIRCLE
  8
1
 62
7
  6
CONTINUOUS
 10
813.480219
 20
946.886667
 40
0.750000
  0
CIRCLE
  8
1
 62
7
  6
CONTINUOUS
 10
993.480220
 20
946.886667
 40
1.500000
  0
CIRCLE
  8
1
 62
7
  6
CONTINUOUS
 10
993.480220
 20
946.886667
 40
0.750000
  0
TEXT
  8
1
 62
7
  6
CONTINUOUS
 10
888.480219
 20
946.886667
 40
20.000000
 41
0.500000
  1
180
  7
KANJI
 50
0.000000
 51
30.000000
  0
ENDBLK
  0
BLOCK
  8
1
 62
7
  6
CONTINUOUS
  2
*D20
 70
    65
 10
0.0
 20
0.0
  0
LINE
  8
1
 62
7
  6
CONTINUOUS
 10
1358.398086
 20
1089.886667
 11
1358.398086
 21
1013.886667
  0
LINE
  8
1
 62
7
  6
CONTINUOUS
 10
1368.398086
 20
1089.886667
 11
1278.480220
 21
1089.886667
  0
LINE
  8
1
 62
7
  6
CONTINUOUS
 10
1368.398086
 20
1013.886667
 11
1278.480220
 21
1013.886667
  0
CIRCLE
  8
1
 62
7
  6
CONTINUOUS
 10
1358.398086
 20
1089.886667
 40
1.500000
  0
CIRCLE
  8
1
 62
7
  6
CONTINUOUS
 10
1358.398086
 20
1089.886667
 40
0.750000
  0
CIRCLE
  8
1
 62
7
  6
CONTINUOUS
 10
1358.398086
 20
1013.886667
 40
1.500000
  0
CIRCLE
  8
1
 62
7
  6
CONTINUOUS
 10
1358.398086
 20
1013.886667
 40
0.750000
  0
TEXT
  8
1
 62
7
  6
CONTINUOUS
 10
1358.398086
 20
1041.886667
 40
20.000000
 41
0.500000
  1
76
  7
KANJI
 50
90.000000
 51
30.000000
  0
ENDBLK
  0
BLOCK
  8
1
 62
7
  6
CONTINUOUS
  2
*D21
 70
    65
 10
0.0
 20
0.0
  0
LINE
  8
1
 62
7
  6
CONTINUOUS
 10
1181.135718
 20
1051.886667
 11
1181.135718
 21
1089.886667
  0
LINE
  8
1
 62
7
  6
CONTINUOUS
 10
1191.135718
 20
1051.886667
 11
1133.480219
 21
1051.886667
  0
LINE
  8
1
 62
7
  6
CONTINUOUS
 10
1191.135718
 20
1089.886667
 11
1133.480219
 21
1089.886667
  0
CIRCLE
  8
1
 62
7
  6
CONTINUOUS
 10
1181.135718
 20
1051.886667
 40
1.500000
  0
CIRCLE
  8
1
 62
7
  6
CONTINUOUS
 10
1181.135718
 20
1051.886667
 40
0.750000
  0
CIRCLE
  8
1
 62
7
  6
CONTINUOUS
 10
1181.135718
 20
1089.886667
 40
1.500000
  0
CIRCLE
  8
1
 62
7
  6
CONTINUOUS
 10
1181.135718
 20
1089.886667
 40
0.750000
  0
TEXT
  8
1
 62
7
  6
CONTINUOUS
 10
1181.135718
 20
1060.886667
 40
20.000000
 41
0.500000
  1
38
  7
KANJI
 50
90.000000
 51
30.000000
  0
ENDBLK
  0
BLOCK
  8
1
 62
7
  6
CONTINUOUS
  2
*D22
 70
    65
 10
0.0
 20
0.0
  0
LINE
  8
1
 62
7
  6
CONTINUOUS
 10
634.699294
 20
1051.886667
 11
634.699294
 21
1089.886667
  0
LINE
  8
1
 62
7
  6
CONTINUOUS
 10
624.699294
 20
1051.886667
 11
674.090556
 21
1051.886667
  0
LINE
  8
1
 62
7
  6
CONTINUOUS
 10
624.699294
 20
1089.886667
 11
673.799237
 21
1089.886667
  0
CIRCLE
  8
1
 62
7
  6
CONTINUOUS
 10
634.699294
 20
1051.886667
 40
1.500000
  0
CIRCLE
  8
1
 62
7
  6
CONTINUOUS
 10
634.699294
 20
1051.886667
 40
0.750000
  0
CIRCLE
  8
1
 62
7
  6
CONTINUOUS
 10
634.699294
 20
1089.886667
 40
1.500000
  0
CIRCLE
  8
1
 62
7
  6
CONTINUOUS
 10
634.699294
 20
1089.886667
 40
0.750000
  0
TEXT
  8
1
 62
7
  6
CONTINUOUS
 10
634.699294
 20
1060.886667
 40
20.000000
 41
0.500000
  1
38
  7
KANJI
 50
90.000000
 51
30.000000
  0
ENDBLK
  0
BLOCK
  8
1
 62
7
  6
CONTINUOUS
  2
*D23
 70
    65
 10
0.0
 20
0.0
  0
LINE
  8
1
 62
7
  6
CONTINUOUS
 10
770.067725
 20
1089.886667
 11
770.067725
 21
946.886667
  0
LINE
  8
1
 62
7
  6
CONTINUOUS
 10
760.067725
 20
1089.886667
 11
893.480219
 21
1089.886667
  0
LINE
  8
1
 62
7
  6
CONTINUOUS
 10
760.067725
 20
946.886667
 11
893.480219
 21
946.886667
  0
CIRCLE
  8
1
 62
7
  6
CONTINUOUS
 10
770.067725
 20
1089.886667
 40
1.500000
  0
CIRCLE
  8
1
 62
7
  6
CONTINUOUS
 10
770.067725
 20
1089.886667
 40
0.750000
  0
CIRCLE
  8
1
 62
7
  6
CONTINUOUS
 10
770.067725
 20
946.886667
 40
1.500000
  0
CIRCLE
  8
1
 62
7
  6
CONTINUOUS
 10
770.067725
 20
946.886667
 40
0.750000
  0
TEXT
  8
1
 62
7
  6
CONTINUOUS
 10
770.067725
 20
1003.386667
 40
20.000000
 41
0.500000
  1
143
  7
KANJI
 50
90.000000
 51
30.000000
  0
ENDBLK
  0
BLOCK
  8
1
 62
7
  6
CONTINUOUS
  2
*D24
 70
    65
 10
0.0
 20
0.0
  0
LINE
  8
1
 62
7
  6
CONTINUOUS
 10
1426.181221
 20
1114.886667
 11
1426.181221
 21
604.886667
  0
LINE
  8
1
 62
7
  6
CONTINUOUS
 10
1416.181221
 20
1114.886667
 11
1468.332533
 21
1114.886667
  0
LINE
  8
1
 62
7
  6
CONTINUOUS
 10
1416.181221
 20
604.886667
 11
1468.332533
 21
604.886667
  0
CIRCLE
  8
1
 62
7
  6
CONTINUOUS
 10
1426.181221
 20
1114.886667
 40
1.500000
  0
CIRCLE
  8
1
 62
7
  6
CONTINUOUS
 10
1426.181221
 20
1114.886667
 40
0.750000
  0
CIRCLE
  8
1
 62
7
  6
CONTINUOUS
 10
1426.181221
 20
604.886667
 40
1.500000
  0
CIRCLE
  8
1
 62
7
  6
CONTINUOUS
 10
1426.181221
 20
604.886667
 40
0.750000
  0
TEXT
  8
1
 62
7
  6
CONTINUOUS
 10
1426.181221
 20
844.886667
 40
20.000000
 41
0.500000
  1
510
  7
KANJI
 50
90.000000
 51
30.000000
  0
ENDBLK
  0
BLOCK
  8
1
 62
7
  6
CONTINUOUS
  2
*D25
 70
    65
 10
0.0
 20
0.0
  0
LINE
  8
1
 62
7
  6
CONTINUOUS
 10
1754.045527
 20
1114.886667
 11
1754.045527
 21
946.886667
  0
LINE
  8
1
 62
7
  6
CONTINUOUS
 10
1764.045527
 20
1114.886667
 11
1718.332533
 21
1114.886667
  0
LINE
  8
1
 62
7
  6
CONTINUOUS
 10
1764.045527
 20
946.886667
 11
1718.332533
 21
946.886667
  0
CIRCLE
  8
1
 62
7
  6
CONTINUOUS
 10
1754.045527
 20
1114.886667
 40
1.500000
  0
CIRCLE
  8
1
 62
7
  6
CONTINUOUS
 10
1754.045527
 20
1114.886667
 40
0.750000
  0
CIRCLE
  8
1
 62
7
  6
CONTINUOUS
 10
1754.045527
 20
946.886667
 40
1.500000
  0
CIRCLE
  8
1
 62
7
  6
CONTINUOUS
 10
1754.045527
 20
946.886667
 40
0.750000
  0
TEXT
  8
1
 62
7
  6
CONTINUOUS
 10
1754.045527
 20
1015.886667
 40
20.000000
 41
0.500000
  1
168
  7
KANJI
 50
90.000000
 51
30.000000
  0
ENDBLK
  0
ENDSEC
  0
SECTION
  2
ENTITIES
  0
TEXT
  8
1
 62
7
  6
CONTINUOUS
 10
39.900000
 20
144.259375
 40
24.750000
 41
0.800000
  1
取引先：
  7
KANJI
 50
0.000000
 51
0.000000
  0
TEXT
  8
1
 62
7
  6
CONTINUOUS
 10
119.100000
 20
156.634375
 40
12.375000
 41
0.400000
  1

  7
KANJI
 50
0.000000
 51
0.000000
  0
TEXT
  8
1
 62
7
  6
CONTINUOUS
 10
119.100000
 20
144.259375
 40
12.375000
 41
0.400000
  1

  7
KANJI
 50
0.000000
 51
0.000000
  0
TEXT
  8
1
 62
7
  6
CONTINUOUS
 10
39.900000
 20
94.759375
 40
24.750000
 41
0.800000
  1
物件名：
  7
KANJI
 50
0.000000
 51
0.000000
  0
TEXT
  8
1
 62
7
  6
CONTINUOUS
 10
119.100000
 20
107.134375
 40
12.375000
 41
0.400000
  1

  7
KANJI
 50
0.000000
 51
0.000000
  0
TEXT
  8
1
 62
7
  6
CONTINUOUS
 10
119.100000
 20
94.759375
 40
12.375000
 41
0.400000
  1

  7
KANJI
 50
0.000000
 51
0.000000
  0
TEXT
  8
1
 62
7
  6
CONTINUOUS
 10
39.900000
 20
45.259375
 40
24.750000
 41
0.700000
  1
納 期：
  7
KANJI
 50
0.000000
 51
0.000000
  0
TEXT
  8
1
 62
7
  6
CONTINUOUS
 10
109.200000
 20
57.634375
 40
12.375000
 41
0.400000
  1

  7
KANJI
 50
0.000000
 51
0.000000
  0
TEXT
  8
1
 62
7
  6
CONTINUOUS
 10
109.200000
 20
45.259375
 40
12.375000
 41
0.400000
  1

  7
KANJI
 50
0.000000
 51
0.000000
  0
LINE
  8
1
 62
7
  6
CONTINUOUS
 10
30.000000
 20
188.500000
 11
30.000000
 21
40.000000
  0
LINE
  8
1
 62
7
  6
CONTINUOUS
 10
30.000000
 20
188.500000
 11
327.000000
 21
188.500000
  0
LINE
  8
1
 62
7
  6
CONTINUOUS
 10
327.000000
 20
188.500000
 11
327.000000
 21
139.000000
  0
LINE
  8
1
 62
7
  6
CONTINUOUS
 10
327.000000
 20
139.000000
 11
30.000000
 21
139.000000
  0
LINE
  8
1
 62
7
  6
CONTINUOUS
 10
30.000000
 20
139.000000
 11
30.000000
 21
89.500000
  0
LINE
  8
1
 62
7
  6
CONTINUOUS
 10
30.000000
 20
89.500000
 11
327.000000
 21
89.500000
  0
LINE
  8
1
 62
7
  6
CONTINUOUS
 10
327.000000
 20
89.500000
 11
327.000000
 21
139.000000
  0
LINE
  8
1
 62
7
  6
CONTINUOUS
 10
327.000000
 20
139.000000
 11
327.000000
 21
40.000000
  0
LINE
  8
1
 62
7
  6
CONTINUOUS
 10
327.000000
 20
40.000000
 11
30.000000
 21
40.000000
  0
TEXT
  8
1
 62
7
  6
CONTINUOUS
 10
341.850000
 20
144.259375
 40
24.750000
 41
0.800000
  1
　色柄：
  7
KANJI
 50
0.000000
 51
0.000000
  0
TEXT
  8
1
 62
7
  6
CONTINUOUS
 10
421.050000
 20
156.634375
 40
12.375000
 41
0.400000
  1

  7
KANJI
 50
0.000000
 51
0.000000
  0
TEXT
  8
1
 62
7
  6
CONTINUOUS
 10
421.050000
 20
144.259375
 40
12.375000
 41
0.400000
  1

  7
KANJI
 50
0.000000
 51
0.000000
  0
TEXT
  8
1
 62
7
  6
CONTINUOUS
 10
341.850000
 20
94.759375
 40
24.750000
 41
0.800000
  1
　厚み：
  7
KANJI
 50
0.000000
 51
0.000000
  0
TEXT
  8
1
 62
7
  6
CONTINUOUS
 10
421.050000
 20
107.134375
 40
12.375000
 41
0.400000
  1

  7
KANJI
 50
0.000000
 51
0.000000
  0
TEXT
  8
1
 62
7
  6
CONTINUOUS
 10
421.050000
 20
94.759375
 40
12.375000
 41
0.400000
  1

  7
KANJI
 50
0.000000
 51
0.000000
  0
TEXT
  8
1
 62
7
  6
CONTINUOUS
 10
341.850000
 20
45.259375
 40
24.750000
 41
0.800000
  1
付属品：
  7
KANJI
 50
0.000000
 51
0.000000
  0
TEXT
  8
1
 62
7
  6
CONTINUOUS
 10
421.050000
 20
57.634375
 40
12.375000
 41
0.400000
  1

  7
KANJI
 50
0.000000
 51
0.000000
  0
TEXT
  8
1
 62
7
  6
CONTINUOUS
 10
421.050000
 20
45.259375
 40
12.375000
 41
0.400000
  1

  7
KANJI
 50
0.000000
 51
0.000000
  0
LINE
  8
1
 62
7
  6
CONTINUOUS
 10
429.073950
 20
40.000000
 11
429.073950
 21
188.500000
  0
TEXT
  8
1
 62
7
  6
CONTINUOUS
 10
438.973950
 20
164.987500
 40
19.800000
 41
1.000000
  1
単色シリーズ
  7
KANJI
 50
0.000000
 51
0.000000
  0
TEXT
  8
1
 62
7
  6
CONTINUOUS
 10
557.773950
 20
174.887500
 40
9.900000
 41
0.500000
  1

  7
KANJI
 50
0.000000
 51
0.000000
  0
TEXT
  8
1
 62
7
  6
CONTINUOUS
 10
557.773950
 20
164.987500
 40
9.900000
 41
0.500000
  1

  7
KANJI
 50
0.000000
 51
0.000000
  0
LINE
  8
1
 62
7
  6
CONTINUOUS
 10
1615.489950
 20
40.000000
 11
1615.489950
 21
188.500000
  0
TEXT
  8
1
 62
7
  6
CONTINUOUS
 10
1235.923950
 20
94.759375
 40
24.750000
 41
0.800000
  1
埼玉県比企郡川島町表２１－５
  7
KANJI
 50
0.000000
 51
0.000000
  0
TEXT
  8
1
 62
7
  6
CONTINUOUS
 10
1513.123950
 20
107.134375
 40
12.375000
 41
0.400000
  1

  7
KANJI
 50
0.000000
 51
0.000000
  0
TEXT
  8
1
 62
7
  6
CONTINUOUS
 10
1513.123950
 20
94.759375
 40
12.375000
 41
0.400000
  1

  7
KANJI
 50
0.000000
 51
0.000000
  0
TEXT
  8
1
 62
7
  6
CONTINUOUS
 10
1235.923950
 20
70.009375
 40
24.750000
 41
0.647059
  1
  TEL ０４９２－９７－７２７１
  7
KANJI
 50
0.000000
 51
0.000000
  0
TEXT
  8
1
 62
7
  6
CONTINUOUS
 10
1495.798950
 20
82.384375
 40
12.375000
 41
0.388235
  1

  7
KANJI
 50
0.000000
 51
0.000000
  0
TEXT
  8
1
 62
7
  6
CONTINUOUS
 10
1495.798950
 20
70.009375
 40
12.375000
 41
0.388235
  1

  7
KANJI
 50
0.000000
 51
0.000000
  0
TEXT
  8
1
 62
7
  6
CONTINUOUS
 10
1235.923950
 20
45.259375
 40
24.750000
 41
0.647059
  1
  FAX ０４９２－９７－７２７３
  7
KANJI
 50
0.000000
 51
0.000000
  0
TEXT
  8
1
 62
7
  6
CONTINUOUS
 10
1495.798950
 20
57.634375
 40
12.375000
 41
0.388235
  1

  7
KANJI
 50
0.000000
 51
0.000000
  0
TEXT
  8
1
 62
7
  6
CONTINUOUS
 10
1495.798950
 20
45.259375
 40
12.375000
 41
0.388235
  1

  7
KANJI
 50
0.000000
 51
0.000000
  0
TEXT
  8
1
 62
7
  6
CONTINUOUS
 10
1235.923950
 20
117.653125
 40
34.650000
 41
1.285714
  1
㈱三井ＰＣＯ
  7
KANJI
 50
0.000000
 51
0.000000
  0
TEXT
  8
1
 62
7
  6
CONTINUOUS
 10
1468.573950
 20
134.978125
 40
17.325000
 41
0.642857
  1

  7
KANJI
 50
0.000000
 51
0.000000
  0
TEXT
  8
1
 62
7
  6
CONTINUOUS
 10
1468.573950
 20
117.653125
 40
17.325000
 41
0.642857
  1

  7
KANJI
 50
0.000000
 51
0.000000
  0
LINE
  8
1
 62
7
  6
CONTINUOUS
 10
429.073950
 20
188.500000
 11
578.420400
 21
188.500000
  0
LINE
  8
1
 62
7
  6
CONTINUOUS
 10
578.420400
 20
188.500000
 11
722.960400
 21
188.500000
  0
LINE
  8
1
 62
7
  6
CONTINUOUS
 10
722.960400
 20
188.500000
 11
872.851350
 21
188.500000
  0
LINE
  8
1
 62
7
  6
CONTINUOUS
 10
872.851350
 20
40.000000
 11
429.073950
 21
40.000000
  0
LINE
  8
1
 62
7
  6
CONTINUOUS
 10
429.073950
 20
139.000000
 11
872.851350
 21
139.000000
  0
LINE
  8
1
 62
7
  6
CONTINUOUS
 10
872.851350
 20
89.500000
 11
429.073950
 21
89.500000
  0
LINE
  8
1
 62
7
  6
CONTINUOUS
 10
578.420400
 20
188.500000
 11
578.420400
 21
89.500000
  0
LINE
  8
1
 62
7
  6
CONTINUOUS
 10
906.348000
 20
139.000000
 11
872.851350
 21
139.000000
  0
LINE
  8
1
 62
7
  6
CONTINUOUS
 10
872.851350
 20
139.000000
 11
906.348000
 21
139.000000
  0
LINE
  8
1
 62
7
  6
CONTINUOUS
 10
906.348000
 20
89.500000
 11
872.851350
 21
89.500000
  0
LINE
  8
1
 62
7
  6
CONTINUOUS
 10
872.851350
 20
89.500000
 11
906.348000
 21
89.500000
  0
LINE
  8
1
 62
7
  6
CONTINUOUS
 10
578.420400
 20
89.500000
 11
578.420400
 21
40.000000
  0
LINE
  8
1
 62
7
  6
CONTINUOUS
 10
872.851350
 20
188.500000
 11
906.348000
 21
188.500000
  0
LINE
  8
1
 62
7
  6
CONTINUOUS
 10
906.348000
 20
40.000000
 11
872.851350
 21
40.000000
  0
LINE
  8
1
 62
7
  6
CONTINUOUS
 10
1129.098000
 20
188.500000
 11
1129.098000
 21
40.000000
  0
LINE
  8
1
 62
7
  6
CONTINUOUS
 10
1129.098000
 20
40.000000
 11
1615.489950
 21
40.000000
  0
LINE
  8
1
 62
7
  6
CONTINUOUS
 10
1615.489950
 20
188.500000
 11
1129.098000
 21
188.500000
  0
LINE
  8
1
 62
7
  6
CONTINUOUS
 10
906.348000
 20
188.500000
 11
1121.673000
 21
188.500000
  0
LINE
  8
1
 62
7
  6
CONTINUOUS
 10
1121.673000
 20
188.500000
 11
1121.673000
 21
40.000000
  0
LINE
  8
1
 62
7
  6
CONTINUOUS
 10
1121.673000
 20
40.000000
 11
906.348000
 21
40.000000
  0
LINE
  8
1
 62
7
  6
CONTINUOUS
 10
906.348000
 20
139.000000
 11
1121.673000
 21
139.000000
  0
LINE
  8
1
 62
7
  6
CONTINUOUS
 10
1121.673000
 20
89.500000
 11
906.348000
 21
89.500000
  0
TEXT
  8
1
 62
7
  6
CONTINUOUS
 10
931.360845
 20
164.987500
 40
19.800000
 41
1.000000
  1
モンタナシリーズ
  7
KANJI
 50
0.000000
 51
0.000000
  0
TEXT
  8
1
 62
7
  6
CONTINUOUS
 10
1089.760845
 20
174.887500
 40
9.900000
 41
0.500000
  1

  7
KANJI
 50
0.000000
 51
0.000000
  0
TEXT
  8
1
 62
7
  6
CONTINUOUS
 10
1089.760845
 20
164.987500
 40
9.900000
 41
0.500000
  1

  7
KANJI
 50
0.000000
 51
0.000000
  0
TEXT
  8
1
 62
7
  6
CONTINUOUS
 10
755.473485
 20
164.987500
 40
19.800000
 41
1.000000
  1
シエラシリーズ
  7
KANJI
 50
0.000000
 51
0.000000
  0
TEXT
  8
1
 62
7
  6
CONTINUOUS
 10
894.073485
 20
174.887500
 40
9.900000
 41
0.500000
  1

  7
KANJI
 50
0.000000
 51
0.000000
  0
TEXT
  8
1
 62
7
  6
CONTINUOUS
 10
894.073485
 20
164.987500
 40
9.900000
 41
0.500000
  1

  7
KANJI
 50
0.000000
 51
0.000000
  0
LINE
  8
1
 62
7
  6
CONTINUOUS
 10
919.192260
 20
188.500000
 11
919.192260
 21
40.000000
  0
TEXT
  8
1
 62
7
  6
CONTINUOUS
 10
588.320400
 20
161.275000
 40
19.800000
 41
1.000000
  1
ベナーロシリーズ
  7
KANJI
 50
0.000000
 51
0.000000
  0
TEXT
  8
1
 62
7
  6
CONTINUOUS
 10
746.720400
 20
171.175000
 40
9.900000
 41
0.500000
  1

  7
KANJI
 50
0.000000
 51
0.000000
  0
TEXT
  8
1
 62
7
  6
CONTINUOUS
 10
746.720400
 20
161.275000
 40
9.900000
 41
0.500000
  1

  7
KANJI
 50
0.000000
 51
0.000000
  0
LINE
  8
1
 62
7
  6
CONTINUOUS
 10
749.190450
 20
188.500000
 11
749.190450
 21
40.000000
  0
TEXT
  8
1
 62
7
  6
CONTINUOUS
 10
429.073950
 20
48.380350
 40
24.750000
 41
0.800000
  1
シーム剤  本
  7
KANJI
 50
0.000000
 51
0.000000
  0
TEXT
  8
1
 62
7
  6
CONTINUOUS
 10
557.773950
 20
60.755350
 40
12.375000
 41
0.466667
  1

  7
KANJI
 50
0.000000
 51
0.000000
  0
TEXT
  8
1
 62
7
  6
CONTINUOUS
 10
557.773950
 20
48.380350
 40
12.375000
 41
0.466667
  1

  7
KANJI
 50
0.000000
 51
0.000000
  0
TEXT
  8
1
 62
7
  6
CONTINUOUS
 10
924.142260
 20
52.589335
 40
24.750000
 41
1.000000
  1
梱包個数　　梱
  7
KANJI
 50
0.000000
 51
0.000000
  0
TEXT
  8
1
 62
7
  6
CONTINUOUS
 10
1097.392260
 20
64.964335
 40
12.375000
 41
0.500000
  1

  7
KANJI
 50
0.000000
 51
0.000000
  0
TEXT
  8
1
 62
7
  6
CONTINUOUS
 10
1097.392260
 20
52.589335
 40
12.375000
 41
0.500000
  1

  7
KANJI
 50
0.000000
 51
0.000000
  0
TEXT
  8
1
 62
7
  6
CONTINUOUS
 10
735.879900
 20
52.271050
 40
24.750000
 41
0.746667
  1
 断熱テープ   本
  7
KANJI
 50
0.000000
 51
0.000000
  0
TEXT
  8
1
 62
7
  6
CONTINUOUS
 10
900.467400
 20
64.646050
 40
12.375000
 41
0.466667
  1

  7
KANJI
 50
0.000000
 51
0.000000
  0
TEXT
  8
1
 62
7
  6
CONTINUOUS
 10
900.467400
 20
52.271050
 40
12.375000
 41
0.466667
  1

  7
KANJI
 50
0.000000
 51
0.000000
  0
TEXT
  8
1
 62
7
  6
CONTINUOUS
 10
583.370400
 20
47.910595
 40
24.750000
 41
0.656250
  1
瞬間接着剤 　本
  7
KANJI
 50
0.000000
 51
0.000000
  0
TEXT
  8
1
 62
7
  6
CONTINUOUS
 10
713.307900
 20
60.285595
 40
12.375000
 41
0.350000
  1

  7
KANJI
 50
0.000000
 51
0.000000
  0
TEXT
  8
1
 62
7
  6
CONTINUOUS
 10
713.307900
 20
47.910595
 40
12.375000
 41
0.350000
  1

  7
KANJI
 50
0.000000
 51
0.000000
  0
TEXT
  8
1
 62
7
  6
CONTINUOUS
 10
438.973950
 20
97.234375
 40
24.750000
 41
1.041667
  1
   ㎜
  7
KANJI
 50
0.000000
 51
0.000000
  0
TEXT
  8
1
 62
7
  6
CONTINUOUS
 10
525.598950
 20
109.609375
 40
12.375000
 41
0.833333
  1

  7
KANJI
 50
0.000000
 51
0.000000
  0
TEXT
  8
1
 62
7
  6
CONTINUOUS
 10
525.598950
 20
97.234375
 40
12.375000
 41
0.833333
  1

  7
KANJI
 50
0.000000
 51
0.000000
  0
TEXT
  8
1
 62
7
  6
CONTINUOUS
 10
588.320400
 20
97.234375
 40
24.750000
 41
1.041667
  1
   ㎜
  7
KANJI
 50
0.000000
 51
0.000000
  0
TEXT
  8
1
 62
7
  6
CONTINUOUS
 10
674.945400
 20
109.609375
 40
12.375000
 41
0.833333
  1

  7
KANJI
 50
0.000000
 51
0.000000
  0
TEXT
  8
1
 62
7
  6
CONTINUOUS
 10
674.945400
 20
97.234375
 40
12.375000
 41
0.833333
  1

  7
KANJI
 50
0.000000
 51
0.000000
  0
TEXT
  8
1
 62
7
  6
CONTINUOUS
 10
755.473485
 20
97.234375
 40
24.750000
 41
1.041667
  1
   ㎜
  7
KANJI
 50
0.000000
 51
0.000000
  0
TEXT
  8
1
 62
7
  6
CONTINUOUS
 10
842.098485
 20
109.609375
 40
12.375000
 41
0.833333
  1

  7
KANJI
 50
0.000000
 51
0.000000
  0
TEXT
  8
1
 62
7
  6
CONTINUOUS
 10
842.098485
 20
97.234375
 40
12.375000
 41
0.833333
  1

  7
KANJI
 50
0.000000
 51
0.000000
  0
TEXT
  8
1
 62
7
  6
CONTINUOUS
 10
924.142260
 20
97.234375
 40
24.750000
 41
1.050000
  1
    ㎜
  7
KANJI
 50
0.000000
 51
0.000000
  0
TEXT
  8
1
 62
7
  6
CONTINUOUS
 10
1035.517260
 20
109.609375
 40
12.375000
 41
0.875000
  1

  7
KANJI
 50
0.000000
 51
0.000000
  0
TEXT
  8
1
 62
7
  6
CONTINUOUS
 10
1035.517260
 20
97.234375
 40
12.375000
 41
0.875000
  1

  7
KANJI
 50
0.000000
 51
0.000000
  0
TEXT
  8
1
 62
7
  6
CONTINUOUS
 10
1138.998000
 20
159.109375
 40
24.750000
 41
0.800000
  1
デュポンコーリアン認定加工／施工工場　　Ｍｐｃｏ　
  7
KANJI
 50
0.000000
 51
0.000000
  0
TEXT
  8
1
 62
7
  6
CONTINUOUS
 10
1633.998000
 20
171.484375
 40
12.375000
 41
0.400000
  1

  7
KANJI
 50
0.000000
 51
0.000000
  0
TEXT
  8
1
 62
7
  6
CONTINUOUS
 10
1633.998000
 20
159.109375
 40
12.375000
 41
0.400000
  1

  7
KANJI
 50
0.000000
 51
0.000000
  0
LINE
  8
1
 62
7
  6
CONTINUOUS
 10
1622.914950
 20
40.000000
 11
1734.473100
 21
40.000000
  0
TEXT
  8
1
 62
7
  6
CONTINUOUS
 10
1627.864950
 20
95.378125
 40
34.650000
 41
0.714286
  1
図面番号
  7
KANJI
 50
0.000000
 51
0.000000
  0
TEXT
  8
1
 62
7
  6
CONTINUOUS
 10
1726.864950
 20
112.703125
 40
17.325000
 41
0.357143
  1

  7
KANJI
 50
0.000000
 51
0.000000
  0
TEXT
  8
1
 62
7
  6
CONTINUOUS
 10
1726.864950
 20
95.378125
 40
17.325000
 41
0.357143
  1

  7
KANJI
 50
0.000000
 51
0.000000
  0
LINE
  8
1
 62
7
  6
CONTINUOUS
 10
1622.914950
 20
139.000000
 11
1622.914950
 21
40.000000
  0
LINE
  8
1
 62
7
  6
CONTINUOUS
 10
1622.914950
 20
40.000000
 11
1734.473100
 21
40.000000
  0
LINE
  8
1
 62
7
  6
CONTINUOUS
 10
1734.473100
 20
40.000000
 11
1734.473100
 21
139.000000
  0
LINE
  8
1
 62
7
  6
CONTINUOUS
 10
1734.473100
 20
139.000000
 11
1622.914950
 21
139.000000
  0
LINE
  8
1
 62
7
  6
CONTINUOUS
 10
1622.914950
 20
139.000000
 11
1622.914950
 21
188.500000
  0
LINE
  8
1
 62
7
  6
CONTINUOUS
 10
1622.914950
 20
188.500000
 11
1734.473100
 21
188.500000
  0
LINE
  8
1
 62
7
  6
CONTINUOUS
 10
1734.473100
 20
188.500000
 11
1734.473100
 21
139.000000
  0
TEXT
  8
1
 62
7
  6
CONTINUOUS
 10
1627.864950
 20
161.275000
 40
19.800000
 41
0.875000
  1
CAD-NO
  7
KANJI
 50
0.000000
 51
0.000000
  0
TEXT
  8
1
 62
7
  6
CONTINUOUS
 10
1723.152450
 20
171.175000
 40
9.900000
 41
0.875000
  1

  7
KANJI
 50
0.000000
 51
0.000000
  0
TEXT
  8
1
 62
7
  6
CONTINUOUS
 10
1723.152450
 20
161.275000
 40
9.900000
 41
0.875000
  1

  7
KANJI
 50
0.000000
 51
0.000000
  0
LINE
  8
1
 62
7
  6
CONTINUOUS
 10
1268.920000
 20
471.160000
 11
1273.920000
 21
483.160000
  0
LINE
  8
1
 62
7
  6
CONTINUOUS
 10
1273.920000
 20
483.160000
 11
1248.920000
 21
483.160000
  0
LINE
  8
1
 62
7
  6
CONTINUOUS
 10
518.920000
 20
483.160000
 11
493.920000
 21
483.160000
  0
LINE
  8
1
 62
7
  6
CONTINUOUS
 10
493.920000
 20
483.160000
 11
498.920000
 21
471.160000
  0
LINE
  8
1
 62
7
  6
CONTINUOUS
 10
518.920000
 20
483.160000
 11
1248.920000
 21
483.160000
  0
LINE
  8
1
 62
7
  6
CONTINUOUS
 10
518.920000
 20
483.160000
 11
536.848166
 21
294.914261
  0
ARC
  8
1
 62
7
  6
CONTINUOUS
 10
561.735552
 20
297.284488
 40
25.000000
 50
-174.559668
 51
-92.245743
  0
ARC
  8
1
 62
7
  6
CONTINUOUS
 10
561.339978
 20
296.977610
 40
35.000000
 50
-174.559668
 51
-92.165016
  0
LINE
  8
1
 62
7
  6
CONTINUOUS
 10
1248.920000
 20
483.160000
 11
1230.991834
 21
294.914261
  0
ARC
  8
1
 62
7
  6
CONTINUOUS
 10
1206.104448
 20
297.284488
 40
25.000000
 50
-87.754257
 51
-5.440332
  0
ARC
  8
1
 62
7
  6
CONTINUOUS
 10
1204.065144
 20
296.966825
 40
35.000000
 50
-87.814898
 51
-5.440332
  0
LINE
  8
1
 62
7
  6
CONTINUOUS
 10
793.919999
 20
256.160000
 11
803.919999
 21
256.160000
  0
LINE
  8
1
 62
7
  6
CONTINUOUS
 10
973.919999
 20
256.160000
 11
963.919999
 21
256.160000
  0
LINE
  8
1
 62
7
  6
CONTINUOUS
 10
560.017759
 20
262.002594
 11
782.919999
 21
253.575851
  0
LINE
  8
1
 62
7
  6
CONTINUOUS
 10
803.919999
 20
256.160000
 11
803.919999
 21
248.160000
  0
LINE
  8
1
 62
7
  6
CONTINUOUS
 10
803.919999
 20
256.160000
 11
963.919999
 21
256.160000
  0
LINE
  8
1
 62
7
  6
CONTINUOUS
 10
963.919999
 20
256.160000
 11
963.919999
 21
248.160000
  0
LINE
  8
1
 62
7
  6
CONTINUOUS
 10
983.919999
 20
253.541557
 11
1205.399624
 21
261.992275
  0
LINE
  8
1
 62
7
  6
CONTINUOUS
 10
973.919999
 20
248.160000
 11
978.919999
 21
248.160000
  0
LINE
  8
1
 62
7
  6
CONTINUOUS
 10
983.919999
 20
253.160000
 11
983.919999
 21
253.541557
  0
ARC
  8
1
 62
7
  6
CONTINUOUS
 10
978.919999
 20
253.160000
 40
5.000000
 50
-90.000000
 51
0.000000
  0
LINE
  8
1
 62
7
  6
CONTINUOUS
 10
782.919999
 20
253.575851
 11
782.919999
 21
253.160000
  0
LINE
  8
1
 62
7
  6
CONTINUOUS
 10
787.919999
 20
248.160000
 11
973.919999
 21
248.160000
  0
ARC
  8
1
 62
7
  6
CONTINUOUS
 10
787.919999
 20
253.160000
 40
5.000000
 50
180.000000
 51
-90.000000
  0
LINE
  8
1
 62
7
  6
CONTINUOUS
 10
560.755913
 20
272.303690
 11
791.998370
 21
263.235358
  0
LINE
  8
1
 62
7
  6
CONTINUOUS
 10
793.919999
 20
261.236894
 11
793.919999
 21
256.160000
  0
ARC
  8
1
 62
7
  6
CONTINUOUS
 10
791.919999
 20
261.236894
 40
2.000000
 50
0.000000
 51
87.754257
  0
LINE
  8
1
 62
7
  6
CONTINUOUS
 10
973.919999
 20
261.236894
 11
973.919999
 21
256.160000
  0
LINE
  8
1
 62
7
  6
CONTINUOUS
 10
975.841628
 20
263.235358
 11
1207.084087
 21
272.303690
  0
ARC
  8
1
 62
7
  6
CONTINUOUS
 10
975.919999
 20
261.236894
 40
2.000000
 50
92.245743
 51
180.000000
  0
DIMENSION
  8
1
 62
7
  6
CONTINUOUS
  2
*D1
 10
793.919999
 20
286.869406
 11
883.919999
 21
286.869406
 70
     0
  1
180φ
 13
793.919999
 23
283.160000
 14
973.919999
 24
283.160000
 50
0.000000
  0
DIMENSION
  8
1
 62
7
  6
CONTINUOUS
  2
*D2
 10
466.101315
 20
483.160000
 11
466.101315
 21
477.160000
 70
     0
  1
12
 13
483.920000
 23
483.160000
 14
483.920000
 24
471.160000
 50
-90.000000
  0
DIMENSION
  8
1
 62
7
  6
CONTINUOUS
  2
*D3
 10
493.920000
 20
501.898015
 11
506.420000
 21
501.898015
 70
     0
  1
25
 13
493.920000
 23
493.160000
 14
518.920000
 24
493.160000
 50
0.000000
  0
LINE
  8
1
 62
7
  6
CONTINUOUS
 10
544.724470
 20
278.964470
 11
571.303322
 21
305.543322
  0
LINE
  8
1
 62
7
  6
CONTINUOUS
 10
571.303322
 20
305.543322
 11
593.803322
 21
305.543322
  0
TEXT
  8
1
 62
7
  6
CONTINUOUS
 10
571.303322
 20
305.543322
 40
20.000000
 41
0.375000
  1
25R
  7
KANJI
 50
0.000000
 51
30.000000
  0
LINE
  8
1
 62
7
  6
CONTINUOUS
 10
544.724470
 20
278.964470
 11
554.724470
 21
296.284978
  0
LINE
  8
1
 62
7
  6
CONTINUOUS
 10
544.724470
 20
278.964470
 11
562.044978
 21
288.964470
  0
LINE
  8
1
 62
7
  6
CONTINUOUS
 10
554.724470
 20
296.284978
 11
562.044978
 21
288.964470
  0
LINE
  8
1
 62
7
  6
CONTINUOUS
 10
548.139534
 20
282.379533
 11
553.139534
 21
291.039787
  0
LINE
  8
1
 62
7
  6
CONTINUOUS
 10
548.139534
 20
282.379533
 11
556.799788
 21
287.379533
  0
LINE
  8
1
 62
7
  6
CONTINUOUS
 10
553.139534
 20
291.039787
 11
556.799788
 21
287.379533
  0
DIMENSION
  8
1
 62
7
  6
CONTINUOUS
  2
*D4
 10
520.720261
 20
354.321735
 11
525.955286
 21
354.321735
 70
     0
  1
8
 13
520.720261
 23
354.321735
 14
531.190311
 24
354.321735
 50
0.000000
  0
LINE
  8
1
 62
7
  6
CONTINUOUS
 10
550.508827
 20
354.321735
 11
559.992492
 21
354.321735
  0
LINE
  8
1
 62
7
  6
CONTINUOUS
 10
501.401744
 20
354.321735
 11
490.356536
 21
354.321735
  0
LINE
  8
1
 62
7
  6
CONTINUOUS
 10
498.920000
 20
471.160000
 11
506.864946
 21
471.160000
  0
LINE
  8
1
 62
7
  6
CONTINUOUS
 10
509.851433
 20
468.444427
 11
526.497636
 21
293.659292
  0
ARC
  8
1
 62
7
  6
CONTINUOUS
 10
506.864946
 20
468.160000
 40
3.000000
 50
5.440332
 51
90.000000
  0
LINE
  8
1
 62
7
  6
CONTINUOUS
 10
1238.907486
 20
293.648507
 11
1255.554716
 21
468.444427
  0
LINE
  8
1
 62
7
  6
CONTINUOUS
 10
1258.541203
 20
471.160000
 11
1268.920000
 21
471.160000
  0
ARC
  8
1
 62
7
  6
CONTINUOUS
 10
1258.541203
 20
468.160000
 40
3.000000
 50
90.000000
 51
174.559668
  0
DIMENSION
  8
1
 62
7
  6
CONTINUOUS
  2
*D5
 10
1318.363010
 20
483.160000
 11
1318.363010
 21
373.160000
 70
     0
  1
210
 13
1283.920000
 23
483.160000
 14
1283.920000
 24
263.160000
 50
-90.000000
  0
DIMENSION
  8
1
 62
7
  6
CONTINUOUS
  2
*D6
 10
1347.684866
 20
483.160000
 11
1347.684866
 21
365.660000
 70
     0
  1
230
 13
1283.920000
 23
483.160000
 14
1283.920000
 24
248.160000
 50
-90.000000
  0
LINE
  8
1
 62
7
  6
CONTINUOUS
 10
1478.332533
 20
604.886667
 11
1490.332533
 21
607.886667
  0
LINE
  8
1
 62
7
  6
CONTINUOUS
 10
1478.332533
 20
604.886667
 11
1478.332533
 21
629.886667
  0
LINE
  8
1
 62
7
  6
CONTINUOUS
 10
1490.332533
 20
1111.886667
 11
1478.332533
 21
1114.886667
  0
LINE
  8
1
 62
7
  6
CONTINUOUS
 10
1478.332533
 20
1114.886667
 11
1478.332533
 21
629.886667
  0
LINE
  8
1
 62
7
  6
CONTINUOUS
 10
1490.332533
 20
607.886667
 11
1490.332533
 21
1111.886667
  0
LINE
  8
1
 62
7
  6
CONTINUOUS
 10
1490.332533
 20
1099.886667
 11
1671.660160
 21
1090.865392
  0
LINE
  8
1
 62
7
  6
CONTINUOUS
 10
1694.984457
 20
1070.531471
 11
1701.332533
 21
1036.886667
  0
ARC
  8
1
 62
7
  6
CONTINUOUS
 10
1670.417916
 20
1065.896274
 40
25.000000
 50
10.684912
 51
87.151812
  0
LINE
  8
1
 62
7
  6
CONTINUOUS
 10
1490.332533
 20
1013.886667
 11
1676.332533
 21
1013.886667
  0
LINE
  8
1
 62
7
  6
CONTINUOUS
 10
1701.332533
 20
856.886667
 11
1708.332533
 21
856.886667
  0
LINE
  8
1
 62
7
  6
CONTINUOUS
 10
1708.332533
 20
856.886667
 11
1708.332533
 21
1036.886667
  0
LINE
  8
1
 62
7
  6
CONTINUOUS
 10
1708.332533
 20
1036.886667
 11
1701.332533
 21
1036.886667
  0
LINE
  8
1
 62
7
  6
CONTINUOUS
 10
1701.332533
 20
988.886667
 11
1701.332533
 21
856.886667
  0
ARC
  8
1
 62
7
  6
CONTINUOUS
 10
1676.332533
 20
988.886667
 40
25.000000
 50
0.000000
 51
90.000000
  0
LINE
  8
1
 62
7
  6
CONTINUOUS
 10
1701.332533
 20
988.886667
 11
1701.332533
 21
1036.886667
  0
LINE
  8
1
 62
7
  6
CONTINUOUS
 10
1490.332533
 20
619.886667
 11
1668.600672
 21
628.755728
  0
LINE
  8
1
 62
7
  6
CONTINUOUS
 10
1692.334204
 20
652.624591
 11
1701.332533
 21
856.886667
  0
ARC
  8
1
 62
7
  6
CONTINUOUS
 10
1667.358427
 20
653.724846
 40
25.000000
 50
-87.151812
 51
-2.522412
  0
DIMENSION
  8
1
 62
7
  6
CONTINUOUS
  2
*D7
 10
1478.332533
 20
1188.250729
 11
1593.332533
 21
1188.250729
 70
     0
  1
230
 13
1478.332533
 23
1124.886667
 14
1708.332533
 24
1124.886667
 50
0.000000
  0
DIMENSION
  8
1
 62
7
  6
CONTINUOUS
  2
*D8
 10
1478.332533
 20
573.923640
 11
1484.332533
 21
573.923640
 70
     0
  1
12
 13
1478.332533
 23
594.886667
 14
1490.332533
 24
594.886667
 50
0.000000
  0
LINE
  8
1
 62
7
  6
CONTINUOUS
 10
1684.368710
 20
635.404085
 11
1644.743784
 21
675.029011
  0
LINE
  8
1
 62
7
  6
CONTINUOUS
 10
1644.743784
 20
675.029011
 11
1622.243784
 21
675.029011
  0
TEXT
  8
1
 62
7
  6
CONTINUOUS
 10
1622.243784
 20
675.029011
 40
20.000000
 41
0.375000
  1
25R
  7
KANJI
 50
0.000000
 51
30.000000
  0
LINE
  8
1
 62
7
  6
CONTINUOUS
 10
1684.368710
 20
635.404085
 11
1667.048202
 21
645.404085
  0
LINE
  8
1
 62
7
  6
CONTINUOUS
 10
1684.368710
 20
635.404085
 11
1674.368710
 21
652.724593
  0
LINE
  8
1
 62
7
  6
CONTINUOUS
 10
1667.048202
 20
645.404085
 11
1674.368710
 21
652.724593
  0
LINE
  8
1
 62
7
  6
CONTINUOUS
 10
1680.953646
 20
638.819149
 11
1672.293392
 21
643.819149
  0
LINE
  8
1
 62
7
  6
CONTINUOUS
 10
1680.953646
 20
638.819149
 11
1675.953646
 21
647.479403
  0
LINE
  8
1
 62
7
  6
CONTINUOUS
 10
1672.293392
 20
643.819149
 11
1675.953646
 21
647.479403
  0
LINE
  8
1
 62
7
  6
CONTINUOUS
 10
588.480220
 20
604.886667
 11
1218.480220
 21
604.886667
  0
ARC
  8
1
 62
7
  6
CONTINUOUS
 10
588.480220
 20
679.886667
 40
75.000000
 50
180.000000
 51
-90.000000
  0
LINE
  8
1
 62
7
  6
CONTINUOUS
 10
513.480220
 20
679.886667
 11
513.480220
 21
1039.886667
  0
ARC
  8
1
 62
7
  6
CONTINUOUS
 10
588.480220
 20
1039.886667
 40
75.000000
 50
90.000000
 51
180.000000
  0
LINE
  8
1
 62
7
  6
CONTINUOUS
 10
1218.480220
 20
1114.886667
 11
588.480220
 21
1114.886667
  0
ARC
  8
1
 62
7
  6
CONTINUOUS
 10
1218.480220
 20
679.886667
 40
75.000000
 50
-90.000000
 51
0.000000
  0
LINE
  8
1
 62
7
  6
CONTINUOUS
 10
1293.480220
 20
1039.886667
 11
1293.480220
 21
679.886667
  0
ARC
  8
1
 62
7
  6
CONTINUOUS
 10
1218.480220
 20
1039.886667
 40
75.000000
 50
0.000000
 51
90.000000
  0
DIMENSION
  8
1
 62
7
  6
CONTINUOUS
  2
*D9
 10
513.480220
 20
1189.886667
 11
903.480220
 21
1189.886667
 70
     0
  1
780
 13
513.480220
 23
1124.886667
 14
1293.480220
 24
1124.886667
 50
0.000000
  0
DIMENSION
  8
1
 62
7
  6
CONTINUOUS
  2
*D10
 10
513.480220
 20
1164.886667
 11
525.980220
 21
1164.886667
 70
     0
  1
25
 13
513.480220
 23
1149.886667
 14
538.480220
 24
1149.886667
 50
0.000000
  0
DIMENSION
  8
1
 62
7
  6
CONTINUOUS
  2
*D11
 10
538.480220
 20
1164.886667
 11
903.480220
 21
1164.886667
 70
     0
  1
730
 13
538.480220
 23
1164.886667
 14
1268.480220
 24
1149.886667
 50
0.000000
  0
DIMENSION
  8
1
 62
7
  6
CONTINUOUS
  2
*D12
 10
1268.480220
 20
1164.886667
 11
1280.980220
 21
1164.886667
 70
     0
  1
25
 13
1268.480220
 23
1164.886667
 14
1293.480220
 24
1149.886667
 50
0.000000
  0
DIMENSION
  8
1
 62
7
  6
CONTINUOUS
  2
*D13
 10
438.480220
 20
1114.886667
 11
438.480220
 21
859.886667
 70
     0
  1
510
 13
503.480220
 23
1114.886667
 14
503.480220
 24
604.886667
 50
-90.000000
  0
DIMENSION
  8
1
 62
7
  6
CONTINUOUS
  2
*D14
 10
463.480220
 20
1114.886667
 11
463.480220
 21
1102.386667
 70
     0
  1
25
 13
503.480220
 23
1114.886667
 14
503.480220
 24
1089.886667
 50
-90.000000
  0
DIMENSION
  8
1
 62
7
  6
CONTINUOUS
  2
*D15
 10
463.480220
 20
1089.886667
 11
463.480220
 21
859.886667
 70
     0
  1
460
 13
463.480220
 23
1089.886667
 14
503.480220
 24
629.886667
 50
-90.000000
  0
DIMENSION
  8
1
 62
7
  6
CONTINUOUS
  2
*D16
 10
463.480220
 20
629.886667
 11
463.480220
 21
617.386667
 70
     0
  1
25
 13
463.480220
 23
629.886667
 14
503.480220
 24
604.886667
 50
-90.000000
  0
ARC
  8
1
 62
7
  6
CONTINUOUS
 10
1082.990665
 20
1063.886667
 40
50.000000
 50
-135.893042
 51
-90.000000
  0
ARC
  8
1
 62
7
  6
CONTINUOUS
 10
903.480220
 20
889.886667
 40
200.000000
 50
44.106958
 51
135.893042
  0
ARC
  8
1
 62
7
  6
CONTINUOUS
 10
723.969774
 20
1063.886667
 40
50.000000
 50
-90.000000
 51
-44.106958
  0
LINE
  8
1
 62
7
  6
CONTINUOUS
 10
568.480220
 20
1013.886667
 11
723.969774
 21
1013.886667
  0
LINE
  8
1
 62
7
  6
CONTINUOUS
 10
1082.990665
 20
1013.886667
 11
1238.480220
 21
1013.886667
  0
LINE
  8
1
 62
7
  6
CONTINUOUS
 10
588.480220
 20
629.886667
 11
1218.480220
 21
629.886667
  0
ARC
  8
1
 62
7
  6
CONTINUOUS
 10
588.480220
 20
679.886667
 40
50.000000
 50
180.000000
 51
-90.000000
  0
ARC
  8
1
 62
7
  6
CONTINUOUS
 10
588.480220
 20
1039.886667
 40
50.000000
 50
90.000000
 51
180.000000
  0
LINE
  8
1
 62
7
  6
CONTINUOUS
 10
1218.480220
 20
1089.886667
 11
588.480220
 21
1089.886667
  0
ARC
  8
1
 62
7
  6
CONTINUOUS
 10
1218.480220
 20
679.886667
 40
50.000000
 50
-90.000000
 51
0.000000
  0
ARC
  8
1
 62
7
  6
CONTINUOUS
 10
1218.480220
 20
1039.886667
 40
50.000000
 50
0.000000
 51
90.000000
  0
LINE
  8
1
 62
7
  6
CONTINUOUS
 10
538.480220
 20
679.886667
 11
538.480220
 21
983.886667
  0
ARC
  8
1
 62
7
  6
CONTINUOUS
 10
568.480220
 20
983.886667
 40
30.000000
 50
90.000000
 51
180.000000
  0
LINE
  8
1
 62
7
  6
CONTINUOUS
 10
1268.480220
 20
983.886667
 11
1268.480220
 21
679.886667
  0
ARC
  8
1
 62
7
  6
CONTINUOUS
 10
1238.480220
 20
983.886667
 40
30.000000
 50
0.000000
 51
90.000000
  0
LINE
  8
1
 62
7
  6
CONTINUOUS
 10
538.480220
 20
1039.886667
 11
538.480220
 21
983.886667
  0
LINE
  8
1
 62
7
  6
CONTINUOUS
 10
1268.480220
 20
983.886667
 11
1268.480220
 21
1039.886667
  0
CIRCLE
  8
1
 62
7
  6
CONTINUOUS
 10
790.980219
 20
1074.886667
 40
1.500000
  0
CIRCLE
  8
1
 62
7
  6
CONTINUOUS
 10
790.980219
 20
1074.886667
 40
0.750000
  0
CIRCLE
  8
1
 62
7
  6
CONTINUOUS
 10
1015.980219
 20
1074.886667
 40
1.500000
  0
CIRCLE
  8
1
 62
7
  6
CONTINUOUS
 10
1015.980219
 20
1074.886667
 40
0.750000
  0
CIRCLE
  8
1
 62
7
  6
CONTINUOUS
 10
790.980219
 20
1074.886667
 40
1.500000
  0
CIRCLE
  8
1
 62
7
  6
CONTINUOUS
 10
790.980219
 20
1074.886667
 40
0.750000
  0
CIRCLE
  8
1
 62
7
  6
CONTINUOUS
 10
1015.980219
 20
1074.886667
 40
1.500000
  0
CIRCLE
  8
1
 62
7
  6
CONTINUOUS
 10
1015.980219
 20
1074.886667
 40
0.750000
  0
DIMENSION
  8
1
 62
7
  6
CONTINUOUS
  2
*D17
 10
683.480219
 20
1139.886667
 11
793.480219
 21
1139.886667
 70
     0
  1
220
 13
683.480219
 23
1124.886667
 14
903.480219
 24
1124.886667
 50
0.000000
  0
DIMENSION
  8
1
 62
7
  6
CONTINUOUS
  2
*D18
 10
903.480219
 20
1139.886667
 11
1013.480219
 21
1139.886667
 70
     0
  1
220
 13
903.480219
 23
1139.886667
 14
1123.480219
 24
1124.886667
 50
0.000000
  0
CIRCLE
  8
1
 62
7
  6
DOT
 10
1123.480219
 20
1051.886667
 40
18.000000
  0
CIRCLE
  8
1
 62
7
  6
DOT
 10
683.480219
 20
1051.886667
 40
18.000000
  0
LINE
  8
1
 62
7
  6
CONTINUOUS
 10
1123.480219
 20
1051.886667
 11
1161.376847
 21
1129.886667
  0
LINE
  8
1
 62
7
  6
CONTINUOUS
 10
1161.376847
 20
1129.886667
 11
1236.376847
 21
1129.886667
  0
TEXT
  8
1
 62
7
  6
CONTINUOUS
 10
1161.376847
 20
1129.886667
 40
20.000000
 41
0.750000
  1
給水栓穴φ
  7
KANJI
 50
0.000000
 51
30.000000
  0
LINE
  8
1
 62
7
  6
CONTINUOUS
 10
1123.480219
 20
1051.886667
 11
1127.266581
 21
1071.524983
  0
LINE
  8
1
 62
7
  6
CONTINUOUS
 10
1123.480219
 20
1051.886667
 11
1136.578463
 21
1067.000766
  0
LINE
  8
1
 62
7
  6
CONTINUOUS
 10
1127.266581
 20
1071.524983
 11
1136.578463
 21
1067.000766
  0
LINE
  8
1
 62
7
  6
CONTINUOUS
 10
1125.590795
 20
1056.230719
 11
1127.483976
 21
1066.049877
  0
LINE
  8
1
 62
7
  6
CONTINUOUS
 10
1125.590795
 20
1056.230719
 11
1132.139917
 21
1063.787768
  0
LINE
  8
1
 62
7
  6
CONTINUOUS
 10
1127.483976
 20
1066.049877
 11
1132.139917
 21
1063.787768
  0
LINE
  8
1
 62
7
  6
CONTINUOUS
 10
683.480219
 20
1051.886667
 11
647.688164
 21
1129.886667
  0
LINE
  8
1
 62
7
  6
CONTINUOUS
 10
647.688164
 20
1129.886667
 11
572.688164
 21
1129.886667
  0
TEXT
  8
1
 62
7
  6
CONTINUOUS
 10
572.688164
 20
1129.886667
 40
20.000000
 41
0.750000
  1
給水栓穴φ
  7
KANJI
 50
0.000000
 51
30.000000
  0
LINE
  8
1
 62
7
  6
CONTINUOUS
 10
683.480219
 20
1051.886667
 11
670.718541
 21
1067.286004
  0
LINE
  8
1
 62
7
  6
CONTINUOUS
 10
683.480219
 20
1051.886667
 11
680.127950
 21
1071.603723
  0
LINE
  8
1
 62
7
  6
CONTINUOUS
 10
670.718541
 20
1067.286004
 11
680.127950
 21
1071.603723
  0
LINE
  8
1
 62
7
  6
CONTINUOUS
 10
681.465975
 20
1056.276216
 11
675.085136
 21
1063.975884
  0
LINE
  8
1
 62
7
  6
CONTINUOUS
 10
681.465975
 20
1056.276216
 11
679.789841
 21
1066.134744
  0
LINE
  8
1
 62
7
  6
CONTINUOUS
 10
675.085136
 20
1063.975884
 11
679.789841
 21
1066.134744
  0
CIRCLE
  8
1
 62
7
  6
DOT
 10
903.480220
 20
946.886667
 40
80.000000
  0
CIRCLE
  8
1
 62
7
  6
CONTINUOUS
 10
903.480219
 20
946.886667
 40
80.000000
  0
CIRCLE
  8
1
 62
7
  6
CONTINUOUS
 10
903.480219
 20
946.886667
 40
90.000000
  0
DIMENSION
  8
1
 62
7
  6
CONTINUOUS
  2
*D19
 10
813.480219
 20
946.886667
 11
903.480219
 21
946.886667
 70
     0
  1
180
 13
813.480219
 23
946.886667
 14
993.480220
 24
946.886667
 50
0.000000
  0
LINE
  8
1
 62
7
  6
CONTINUOUS
 10
553.124880
 20
644.531328
 11
603.036771
 21
694.443216
  0
LINE
  8
1
 62
7
  6
CONTINUOUS
 10
603.036771
 20
694.443216
 11
640.536771
 21
694.443216
  0
TEXT
  8
1
 62
7
  6
CONTINUOUS
 10
603.036771
 20
694.443216
 40
20.000000
 41
0.375000
  1
50R*4
  7
KANJI
 50
0.000000
 51
30.000000
  0
LINE
  8
1
 62
7
  6
CONTINUOUS
 10
553.124880
 20
644.531328
 11
563.124880
 21
661.851836
  0
LINE
  8
1
 62
7
  6
CONTINUOUS
 10
553.124880
 20
644.531328
 11
570.445388
 21
654.531328
  0
LINE
  8
1
 62
7
  6
CONTINUOUS
 10
563.124880
 20
661.851836
 11
570.445388
 21
654.531328
  0
LINE
  8
1
 62
7
  6
CONTINUOUS
 10
556.539944
 20
647.946392
 11
561.539944
 21
656.606645
  0
LINE
  8
1
 62
7
  6
CONTINUOUS
 10
556.539944
 20
647.946392
 11
565.200198
 21
652.946391
  0
LINE
  8
1
 62
7
  6
CONTINUOUS
 10
561.539944
 20
656.606645
 11
565.200198
 21
652.946391
  0
DIMENSION
  8
1
 62
7
  6
CONTINUOUS
  2
*D20
 10
1358.398086
 20
1089.886667
 11
1358.398086
 21
1051.886667
 70
     0
  1
76
 13
1278.480220
 23
1089.886667
 14
1278.480220
 24
1013.886667
 50
-90.000000
  0
LINE
  8
1
 62
7
  6
CONTINUOUS
 10
1268.480220
 20
623.984967
 11
1293.480220
 21
604.886667
  0
LINE
  8
1
 62
7
  6
CONTINUOUS
 10
1293.480220
 20
604.886667
 11
1330.980220
 21
604.886667
  0
TEXT
  8
1
 62
7
  6
CONTINUOUS
 10
1293.480220
 20
604.886667
 40
20.000000
 41
0.375000
  1
75R*4
  7
KANJI
 50
0.000000
 51
30.000000
  0
LINE
  8
1
 62
7
  6
CONTINUOUS
 10
1268.480220
 20
623.984967
 11
1286.974149
 21
616.370864
  0
LINE
  8
1
 62
7
  6
CONTINUOUS
 10
1268.480220
 20
623.984967
 11
1280.689381
 21
608.143996
  0
LINE
  8
1
 62
7
  6
CONTINUOUS
 10
1286.974149
 20
616.370864
 11
1280.689381
 21
608.143996
  0
LINE
  8
1
 62
7
  6
CONTINUOUS
 10
1272.318106
 20
621.053083
 11
1281.565071
 21
617.246031
  0
LINE
  8
1
 62
7
  6
CONTINUOUS
 10
1272.318106
 20
621.053083
 11
1278.422687
 21
613.132597
  0
LINE
  8
1
 62
7
  6
CONTINUOUS
 10
1281.565071
 20
617.246031
 11
1278.422687
 21
613.132597
  0
TEXT
  8
1
 62
7
  6
CONTINUOUS
 10
54.560220
 20
1166.500000
 40
50.000000
 41
0.625000
  1
U-205 ｼﾝｸ詳細図
  7
KANJI
 50
0.000000
 51
0.000000
  0
TEXT
  8
1
 62
7
  6
CONTINUOUS
 10
429.560220
 20
1191.500000
 40
25.000000
 41
0.500000
  1

  7
KANJI
 50
0.000000
 51
0.000000
  0
TEXT
  8
1
 62
7
  6
CONTINUOUS
 10
429.560220
 20
1166.500000
 40
25.000000
 41
0.500000
  1

  7
KANJI
 50
0.000000
 51
0.000000
  0
TEXT
  8
1
 62
7
  6
CONTINUOUS
 10
54.560220
 20
1131.500000
 40
30.000000
 41
0.833333
  1
100％アクリル製
  7
KANJI
 50
0.000000
 51
0.000000
  0
TEXT
  8
1
 62
7
  6
CONTINUOUS
 10
279.560220
 20
1146.500000
 40
15.000000
 41
0.500000
  1

  7
KANJI
 50
0.000000
 51
0.000000
  0
TEXT
  8
1
 62
7
  6
CONTINUOUS
 10
279.560220
 20
1131.500000
 40
15.000000
 41
0.500000
  1

  7
KANJI
 50
0.000000
 51
0.000000
  0
TEXT
  8
1
 62
7
  6
CONTINUOUS
 10
54.560220
 20
1096.500000
 40
30.000000
 41
1.000000
  1
付属品：洗剤アミカゴ
  7
KANJI
 50
0.000000
 51
0.000000
  0
TEXT
  8
1
 62
7
  6
CONTINUOUS
 10
354.560220
 20
1111.500000
 40
15.000000
 41
0.500000
  1

  7
KANJI
 50
0.000000
 51
0.000000
  0
TEXT
  8
1
 62
7
  6
CONTINUOUS
 10
354.560220
 20
1096.500000
 40
15.000000
 41
0.500000
  1

  7
KANJI
 50
0.000000
 51
0.000000
  0
TEXT
  8
1
 62
7
  6
CONTINUOUS
 10
54.560220
 20
1061.500000
 40
30.000000
 41
1.000000
  1
専用排水金具は別売
  7
KANJI
 50
0.000000
 51
0.000000
  0
TEXT
  8
1
 62
7
  6
CONTINUOUS
 10
324.560220
 20
1076.500000
 40
15.000000
 41
0.500000
  1

  7
KANJI
 50
0.000000
 51
0.000000
  0
TEXT
  8
1
 62
7
  6
CONTINUOUS
 10
324.560220
 20
1061.500000
 40
15.000000
 41
0.500000
  1

  7
KANJI
 50
0.000000
 51
0.000000
  0
LINE
  8
1
 62
7
  6
CONTINUOUS
 10
1123.480219
 20
1131.500000
 11
1123.480219
 21
1033.886667
  0
LINE
  8
1
 62
7
  6
CONTINUOUS
 10
683.480219
 20
1131.500000
 11
684.285176
 21
1026.500000
  0
DIMENSION
  8
1
 62
7
  6
CONTINUOUS
  2
*D21
 10
1181.135718
 20
1051.886667
 11
1181.135718
 21
1070.886667
 70
     0
  1
38
 13
1133.480219
 23
1051.886667
 14
1133.480219
 24
1089.886667
 50
90.000000
  0
DIMENSION
  8
1
 62
7
  6
CONTINUOUS
  2
*D22
 10
634.699294
 20
1051.886667
 11
634.699294
 21
1070.886667
 70
     0
  1
38
 13
674.090556
 23
1051.886667
 14
673.799237
 24
1089.886667
 50
90.000000
  0
DIMENSION
  8
1
 62
7
  6
CONTINUOUS
  2
*D23
 10
770.067725
 20
1089.886667
 11
770.067725
 21
1018.386667
 70
     0
  1
143
 13
893.480219
 23
1089.886667
 14
893.480219
 24
946.886667
 50
-90.000000
  0
LINE
  8
1
 62
7
  6
CONTINUOUS
 10
999.617133
 20
1065.265382
 11
1026.400592
 21
956.585806
  0
LINE
  8
1
 62
7
  6
CONTINUOUS
 10
1026.400592
 20
956.585806
 11
1056.988402
 21
956.585806
  0
TEXT
  8
1
 62
7
  6
CONTINUOUS
 10
1026.988402
 20
956.585806
 40
20.000000
 41
0.375000
  1
220R
  7
KANJI
 50
0.000000
 51
30.000000
  0
LINE
  8
1
 62
7
  6
CONTINUOUS
 10
999.617133
 20
1065.265382
 11
1009.265767
 21
1047.746710
  0
LINE
  8
1
 62
7
  6
CONTINUOUS
 10
999.617133
 20
1065.265382
 11
999.213759
 21
1045.269450
  0
LINE
  8
1
 62
7
  6
CONTINUOUS
 10
1009.265767
 20
1047.746710
 11
999.213759
 21
1045.269450
  0
LINE
  8
1
 62
7
  6
CONTINUOUS
 10
1000.772790
 20
1060.576057
 11
1005.597107
 21
1051.816721
  0
LINE
  8
1
 62
7
  6
CONTINUOUS
 10
1000.772790
 20
1060.576057
 11
1000.571103
 21
1050.578091
  0
LINE
  8
1
 62
7
  6
CONTINUOUS
 10
1005.597107
 20
1051.816721
 11
1000.571103
 21
1050.578091
  0
LINE
  8
1
 62
7
  6
CONTINUOUS
 10
535.447210
 20
626.853659
 11
471.707633
 21
563.114082
  0
LINE
  8
1
 62
7
  6
CONTINUOUS
 10
471.707633
 20
563.114082
 11
437.619295
 21
563.114082
  0
TEXT
  8
1
 62
7
  6
CONTINUOUS
 10
437.619295
 20
563.114082
 40
20.000000
 41
0.375000
  1
75R*4
  7
KANJI
 50
0.000000
 51
30.000000
  0
LINE
  8
1
 62
7
  6
CONTINUOUS
 10
535.447210
 20
626.853659
 11
525.447210
 21
609.533151
  0
LINE
  8
1
 62
7
  6
CONTINUOUS
 10
535.447210
 20
626.853659
 11
518.126702
 21
616.853659
  0
LINE
  8
1
 62
7
  6
CONTINUOUS
 10
525.447210
 20
609.533151
 11
518.126702
 21
616.853659
  0
LINE
  8
1
 62
7
  6
CONTINUOUS
 10
532.032147
 20
623.438596
 11
527.032147
 21
614.778342
  0
LINE
  8
1
 62
7
  6
CONTINUOUS
 10
532.032147
 20
623.438596
 11
523.371892
 21
618.438596
  0
LINE
  8
1
 62
7
  6
CONTINUOUS
 10
527.032147
 20
614.778342
 11
523.371892
 21
618.438596
  0
LINE
  8
1
 62
7
  6
CONTINUOUS
 10
559.841484
 20
996.998644
 11
600.254319
 21
956.585806
  0
LINE
  8
1
 62
7
  6
CONTINUOUS
 10
600.254319
 20
956.585806
 11
637.754319
 21
956.585806
  0
TEXT
  8
1
 62
7
  6
CONTINUOUS
 10
600.254319
 20
956.585806
 40
20.000000
 41
0.375000
  1
40R*2
  7
KANJI
 50
0.000000
 51
30.000000
  0
LINE
  8
1
 62
7
  6
CONTINUOUS
 10
559.841484
 20
996.998644
 11
577.161992
 21
986.998643
  0
LINE
  8
1
 62
7
  6
CONTINUOUS
 10
559.841484
 20
996.998644
 11
569.841483
 21
979.678135
  0
LINE
  8
1
 62
7
  6
CONTINUOUS
 10
577.161992
 20
986.998643
 11
569.841483
 21
979.678135
  0
LINE
  8
1
 62
7
  6
CONTINUOUS
 10
563.256547
 20
993.583580
 11
571.916801
 21
988.583580
  0
LINE
  8
1
 62
7
  6
CONTINUOUS
 10
563.256547
 20
993.583580
 11
568.256547
 21
984.923326
  0
LINE
  8
1
 62
7
  6
CONTINUOUS
 10
571.916801
 20
988.583580
 11
568.256547
 21
984.923326
  0
DIMENSION
  8
1
 62
7
  6
CONTINUOUS
  2
*D24
 10
1426.181221
 20
1114.886667
 11
1426.181221
 21
859.886667
 70
     0
  1
510
 13
1468.332533
 23
1114.886667
 14
1468.332533
 24
604.886667
 50
-90.000000
  0
DIMENSION
  8
1
 62
7
  6
CONTINUOUS
  2
*D25
 10
1754.045527
 20
1114.886667
 11
1754.045527
 21
1030.886667
 70
     0
  1
168
 13
1718.332533
 23
1114.886667
 14
1718.332533
 24
946.886667
 50
-90.000000
  0
LINE
  8
1
 62
7
  6
CONTINUOUS
 10
1683.226837
 20
946.886667
 11
1708.332533
 21
946.886667
  0
ENDSEC
  0
EOF
